1. Tämä sivusto käyttää keksejä (cookie). Jatkamalla sivuston käyttämistä hyväksyt keksien käyttämisen. Lue lisää.

Tiedosto liian iso - ääniraita ei lataudu

Viestiketju DivX, XviD ja muut MPEG-4 -formaatit -osiossa. Ketjun avasi Jermakovi 04.06.2012.

  1. Jermakovi

    Jermakovi Member

    Liittynyt:
    04.06.2012
    Viestejä:
    3
    Kiitokset:
    0
    Pisteet:
    11
    Avi2DVD-ohjelma on kyseessä. Lataan videotiedoston (joka sisältää äänenkin). Tiedosto on suuri, joten "analysoimisessa" kestää n. kymmenen sekuntia. Analysoimisen jälkeen kuitenkin ääniraita puuttuu kokonaan. Kun kokeilin toisella tiedostolla joka sisältää samaa videota (mutta yksittäinen osa, ja siten pienempi) myös ääniraita näkyi hyvin...

    Ilman ääniraitaakaan ei elokuvaa oikein viitsisi katsella... :D

    Joten, miten sen ääniraidan saisi sinne ilman tiedoston pienentämistä? (Minulla olisi myös pelkkä ääniraita omana *.mp3-tiedostonaan, jos tiedosto tarvitsee vain siirtää jonnekin.)
     
    Viimeksi muokattu: 04.06.2012
  2.  
  3. 1pertti

    1pertti Senior member

    Liittynyt:
    10.09.2008
    Viestejä:
    7,652
    Kiitokset:
    934
    Pisteet:
    193
  4. Jermakovi

    Jermakovi Member

    Liittynyt:
    04.06.2012
    Viestejä:
    3
    Kiitokset:
    0
    Pisteet:
    11
    (vastaan tänne, koska käyttäjätilini vaatii trust fm-sivustolla vielä aktivointia)

    Avasin tiedoston virtualdubilla ja heti tuli virheilmoitus: "The File "C:\Users\Oma\Documents\muut elokuvat\output\output.avi" is of an unknown or unsupported file type." jotain häikkää siinä on.... Windows Media Playerissa avautuu ihan hyvin (ja toistaakin sen hyvin).

    Niin, ja AVI-tiedosto on koottu 26 muusta videotiedostosta. Yhdistin ne ohjelmalla "Free Video Joiner". Videon koko on 4,26 Gt ja sen kesto on 9 tuntia 45 minuuttia ja 20 sekuntia.

    MediaInfo sanoo näin:


    General
    Complete name : C:\Users\Oma\Documents\muut elokuvat\output\output.avi
    Format : MPEG-4
    Format profile : Base Media
    Codec ID : isom
    File size : 4.26 GiB
    Duration : 9h 45mn
    Overall bit rate : 1 043 Kbps
    Writing application : Lavf54.3.100

    Video
    ID : 1
    Format : AVC
    Format/Info : Advanced Video Codec
    Format profile : High@L3.0
    Format settings, CABAC : Yes
    Format settings, ReFrames : 4 frames
    Codec ID : avc1
    Codec ID/Info : Advanced Video Coding
    Duration : 9h 45mn
    Bit rate : 904 Kbps
    Width : 720 pixels
    Height : 480 pixels
    Display aspect ratio : 3:2
    Frame rate mode : Constant
    Frame rate : 29.970 fps
    Standard : NTSC
    Color space : YUV
    Chroma subsampling : 4:2:0
    Bit depth : 8 bits
    Scan type : Progressive
    Bits/(Pixel*Frame) : 0.087
    Stream size : 3.70 GiB (87%)
    Writing library : x264 core 120 r2164 da19765
    Encoding settings : cabac=1 / ref=3 / deblock=1:0:0 / analyse=0x3:0x113 / me=hex / subme=7 / psy=1 / psy_rd=1.00:0.00 / mixed_ref=1 / me_range=16 / chroma_me=1 / trellis=1 / 8x8dct=1 / cqm=0 / deadzone=21,11 / fast_pskip=1 / chroma_qp_offset=-2 / threads=6 / sliced_threads=0 / nr=0 / decimate=1 / interlaced=0 / bluray_compat=0 / constrained_intra=0 / bframes=3 / b_pyramid=2 / b_adapt=1 / b_bias=0 / direct=1 / weightb=1 / open_gop=0 / weightp=2 / keyint=250 / keyint_min=25 / scenecut=40 / intra_refresh=0 / rc_lookahead=40 / rc=crf / mbtree=1 / crf=23.0 / qcomp=0.60 / qpmin=0 / qpmax=69 / qpstep=4 / ip_ratio=1.40 / aq=1:1.00

    Audio
    ID : 2
    Format : AAC
    Format/Info : Advanced Audio Codec
    Format profile : LC
    Codec ID : 40
    Duration : 9h 45mn
    Bit rate mode : Constant
    Bit rate : 128 Kbps
    Channel(s) : 2 channels
    Channel positions : Front: L R
    Sampling rate : 48.0 KHz
    Compression mode : Lossy
    Delay relative to video : -2s 2ms
    Stream size : 536 MiB (12%)
     
    Viimeksi muokattu: 05.06.2012

Jaa tämä sivu