1. Tämä sivusto käyttää keksejä (cookie). Jatkamalla sivuston käyttämistä hyväksyt keksien käyttämisen. Lue lisää.

.mp4 video

Viestiketju Digivideo-ongelmat ja -keskustelu -osiossa. Ketjun avasi Antti82 28.12.2020.

  1. Antti82

    Antti82 Newbie

    Liittynyt:
    28.12.2020
    Viestejä:
    2
    Kiitokset:
    0
    Pisteet:
    1
    Hei kysyisin teiltä neuvoa kun otin android puhelimella kuvia mikä on liitetty selfietikkuun jossa kaukolaukaisin... liitetty siis äänilähtöön ja varressa olevalla napilla saa kuvan...noo sitten en hokannu ottaa sitä liitintä pois ja alotin kuvaamaan videota ja nappasin vaan rec:n päälle sen kummempia miettimättä ja nyt ei kuulu äänet videossa niin onko äänet mahdollista saada kuulumaan jollain konstilla vai onko mennyt bittiavaruuteen? Kiitos jo etukäteeen...
     
  2.  
  3. 1pertti

    1pertti Senior member

    Liittynyt:
    10.09.2008
    Viestejä:
    8,179
    Kiitokset:
    1,040
    Pisteet:
    243
    Puhelimessahan on yhdistetty kuuloke- ja mikrofoniliitin, eikö niin? Kun liität siihen (3,5 mm) pistikkeen, se samalla irrottaa laitteen oman mikrofonin käytöstä. Koska mikrofoniliittimeen ei ollut liitetty mitään mikrofonia, ei ääni tallentunut mihinkään. Se ei edes muuttunut biteiksi.
     
  4. Antti82

    Antti82 Newbie

    Liittynyt:
    28.12.2020
    Viestejä:
    2
    Kiitokset:
    0
    Pisteet:
    1
    Tätä mä vähä pelkäänki , mutta en tiedä niin tarkasti niin ajattelin kysyä että onko näin käyny ja onko jotain softaa millä tämän voi todentaa? tässä muuten mediainfon tulostama tieto videosta-->
    VIDEO:

    ID : 1
    Format : AVC
    Format/Info : Advanced Video Codec
    Format profile : Baseline@L3
    Format settings : 1 Ref Frames
    Format settings, CABAC : No
    Format settings, Reference frames : 1 frame
    Codec ID : avc1
    Codec ID/Info : Advanced Video Coding
    Duration : 50 s 314 ms
    Bit rate : 1 883 kb/s
    Width : 640 pixels
    Height : 352 pixels
    Display aspect ratio : 16:9
    Frame rate mode : Variable
    Frame rate : 30.032 FPS
    Minimum frame rate : 20.534 FPS
    Maximum frame rate : 35.377 FPS
    Color space : YUV
    Chroma subsampling : 4:2:0
    Bit depth : 8 bits
    Scan type : Progressive
    Bits/(Pixel*Frame) : 0.278

    AUDIO:

    ID : 2
    Format : AAC LC
    Format/Info : Advanced Audio Codec Low Complexity
    Codec ID : mp4a-40-2
    Duration : 50 s 304 ms
    Bit rate mode : Constant
    Bit rate : 256 kb/s
    Channel(s) : 2 channels
    Channel layout : L R
    Sampling rate : 48.0 kHz
    Frame rate : 46.875 FPS (1024 SPF)
    Compression mode : Lossy
    Stream size : 1.54 MiB (12%)

    Stream size : 11.3 MiB (88%)
    Codec configuration box : avcC
     

Jaa tämä sivu